下载 Night Hunter 2019 1080p HDRip x264 [MW] torrent - GloDLS - glotorrents.unblockninja.info
洪流细节 "Night Hunter 2019 1080p HDRip x264 [MW]"

Night Hunter 2019 1080p HDRip x264 [MW]

To download this torrent, you need a BitTorrent client: Vuze or BTGuard
下载这洪流
Download using Magnet Link

健康:
种子: 572
懒鬼: 172
已完成: 3,072 
上次检查: 16-08-2019 18:43:45

上传者的声誉点 : 6108
External: Torrent






Write a Review for the Uploader:   20   Say Thanks with one good review:
Share on Facebook


Details
name:Night Hunter 2019 1080p HDRip x264 [MW]
说明:




General
Format                                   : Matroska
Format version                           : Version 4
File size                                : 1.56 GiB
Duration                                 : 1 h 36 min
Overall bit rate                         : 2 312 kb/s

Video
ID                                       : 1
Format                                   : AVC
Format/Info                              : Advanced Video Codec
Format profile                           : [email protected]
Format settings                          : CABAC / 4 Ref Frames
Format settings, CABAC                   : Yes
Format settings, Reference frames        : 4 frames
Codec ID                                 : V_MPEG4/ISO/AVC
Duration                                 : 1 h 36 min
Bit rate                                 : 2 100 kb/s
Width                                    : 1 920 pixels
Height                                   : 800 pixels
Display aspect ratio                     : 2.40:1
Frame rate mode                          : Constant
Frame rate                               : 60.000 FPS
Color space                              : YUV
Chroma subsampling                       : 4:2:0
Bit depth                                : 8 bits
Scan type                                : Progressive
Bits/(Pixel*Frame)                       : 0.023
Stream size                              : 1.39 GiB (89%)
Writing library                          : x264 core 157 r2935 545de2f

Audio
ID                                       : 2
Format                                   : AAC LC
Codec ID                                 : A_AAC-2
Duration                                 : 1 h 36 min
Bit rate                                 : 256 kb/s
Channel(s)                               : 2 channels
Channel layout                           : L R
Sampling rate                            : 48.0 kHz
Frame rate                               : 46.875 FPS (1024 SPF)
Compression mode                         : Lossy
Stream size                              : 178 MiB (11%)
Language                                 : English
Default                                  : Yes
Forced                                   : No


Click To View Image

https://pichub.site/image/hYqOZ
https://pichub.site/image/ha4Bg
https://pichub.site/image/hafPI
https://pichub.site/image/haMfX
https://pichub.site/image/haaoJ
https://pichub.site/image/haYh8

YouTube 视频:
类别:Movies
语言:English  English
总大小:1.56 GB
哈希信息:7B7AB107F423D1990716EBC215711E2FC90AA0E7
增加:MovieFreak Verified UploaderMovie Pirate
加入的日期:2019-08-14 20:35:43
洪流地位:Torrent Verified


评级:Not Yet Rated (Log in to rate it)


Tracker:
udp://tracker.openbittorrent.com:80/announce

这个洪流也有备份的纤夫
URL播种机懒鬼已完成
udp://tracker.openbittorrent.com:80/announce612310
udp://tracker.opentrackr.org:1337/announce5614355
udp://tracker.coppersurfer.tk:6969/announce5420397
udp://tracker.leechers-paradise.org:6969/announce6419422
udp://tracker.internetwarriors.net:1337/announce4816244
udp://tracker.opentrackr.org:1337/announce5614355
udp://9.rarbg.to:2750/announce3613480
udp://exodus.desync.com:6969/announce5314269
udp://tracker1.itzmx.com:8080/announce000
udp://explodie.org:6969/announce399205
http://tracker3.itzmx.com:6961/announce6118230
udp://tracker.port443.xyz:6969/announce000
udp://tracker.torrent.eu.org:451/announce4412105


文件列表: 





Comments
无可奉告,仍将过帐