ダウンロード My Mix vol 4 (2019) M4A torrent - GloDLS - glotorrents.unblockninja.info
トレントの詳細については "My Mix vol 4 (2019) M4A"

My Mix vol 4 (2019) M4A

To download this torrent, you need a BitTorrent client: Vuze or BTGuard
このトレントをダウンロードしてください。
Download using Magnet Link

健康:
シーズ: 0
リーチャ: 0
完了:
最終チェック: 14-08-2019 19:28:44

アップローダ評判ポイント : 536
External: Torrent






Write a Review for the Uploader:   5   Say Thanks with one good review:
Share on Facebook


Details
名前:My Mix vol 4 (2019) M4A
_DESCRIPTION_:
??

Quality-M4A
Release-2019
Duration-01:28:13
File Size-165.1 MB
Genre-Electronic
Cover Size-1400px

----------------------------------------------------------------------------------------------
Analyzed: My Mix vol.4 /  Artist: V.A
----------------------------------------------------------------------------------------------
DR Peak RMS Duration Title [codec]
----------------------------------------------------------------------------------------------
DR4 -0.00 dB -7.39 dB 3:10 01 - Dust [None]
DR6 -0.00 dB -7.55 dB 8:52 02 - Don't Wake Me Up (feat Inger Hansen) San Antonio Harbour Mix [None]
DR5 -0.00 dB -6.94 dB 2:41 03 - So Hot (Single) [None]
DR4 -0.00 dB -6.87 dB 3:22 04 - Alien Invasion (Original Mix) (Spinnin' Talent Pool) [None]
DR5 -0.00 dB -6.66 dB 8:55 05 - Galapagos (DJ Shah & Ralph Fritsch Tribute Mix) [None]
DR4 -0.00 dB -7.54 dB 3:35 06 - Alibi [None]
DR4 -0.00 dB -8.26 dB 3:00 07 - Are You Listening [None]
DR11 -0.43 dB -13.05 dB 5:41 08 - Champion Sound Switch Remix [None]
DR5 -0.00 dB -8.27 dB 3:49 09 - Giant [None]
DR4 -0.00 dB -9.04 dB 3:24 10 - Resurection [None]
DR3 -0.00 dB -9.32 dB 3:00 11 - Warchant [None]
DR9 -0.00 dB -10.59 dB 11:36 12 - House Music (Deep Dish Body And Soul Mix) [None]
DR6 -0.00 dB -7.85 dB 7:16 13 - Junk (D Ramirez Remix) [None]
DR2 -0.00 dB -4.67 dB 3:00 14 - Snatch [None]
DR6 -0.00 dB -10.23 dB 3:20 15 - Lovely (with Khalid) [None]
DR4 -0.00 dB -7.31 dB 2:37 16 - Vocal Chops [None]
DR3 -0.00 dB -6.39 dB 3:53 17 - Funky Freddy (Extended Mix) [None]
DR5 -0.00 dB -6.88 dB 6:54 18 - Walking Away (Tocadisco Remix) [None]
----------------------------------------------------------------------------------------------
Number of files:    18
Official DR value:  DR5

Sampling rate: 44100 Hz
Average bitrate: 250kbs
Bits per sample: 16 bit
YouTube動画:
カテゴリ:Music
言語:Aucune/N/D
合計サイズ:157.44 MB
情報のハッシュ:F58E21892D1D5E0F94044FD83DB4A3ADDE7E6DE6
を追加することによって:was95was Verified UploaderMusic Lover
追加日:2019-08-15 02:28:40
トレントステータス:Torrent Verified


評価:Not Yet Rated (Log in to rate it)


Tracker:
udp://tracker.piratepublic.com:1337/announce

_THIS_TORRENT_HAS_BACKUP_TRACKERS_
URLシーダーリーチャ完了
udp://tracker.piratepublic.com:1337/announce000
udp://tracker.pirateparty.gr:6969/announce000
udp://tracker.coppersurfer.tk:6969/announce000
udp://tracker.leechers-paradise.org:6969/announce000
udp://9.rarbg.com:2710/announce000
http://p4p.arenabg.com:1337/announce000
http://explodie.org:6969/announce000
udp://tracker.opentrackr.org:1337/announce000
udp://exodus.desync.com:6969/announce000
udp://tracker.leechers-paradise.org:6969/announce000
udp://tracker.zer0day.to:1337/announce000
udp://open.demonii.si:1337/announce000
udp://exodus.desync.com:6969/announce000
udp://tracker.iamhansen.xyz:2000/announce000


ファイルリスト: 





Comments
コメントはまだ投稿されました