Download Every Time I Die 2019 1080p WEB-DL DD 5 1 x264 [MW] torrent - GloDLS - glotorrents.unblockninja.info
Torrent Details For "Every Time I Die 2019 1080p WEB-DL DD 5 1 x264 [MW]"

Every Time I Die 2019 1080p WEB-DL DD 5 1 x264 [MW]

To download this torrent, you need a BitTorrent client: Vuze or BTGuard
Download this torrent
Download using Magnet Link

Health:
Seeds: 54
Leechers: 28
Completed: 530 
Last Checked: 16-08-2019 18:42:46

Uploader Reputation points : 6070
External: Torrent






Write a Review for the Uploader:   20   Say Thanks with one good review:
Share on Facebook


Details
Name:Every Time I Die 2019 1080p WEB-DL DD 5 1 x264 [MW]
Description:




General
Format                                   : Matroska
Format version                           : Version 4
File size                                : 1.73 GiB
Duration                                 : 1 h 37 min
Overall bit rate                         : 2 525 kb/s

Video
ID                                       : 1
Format                                   : AVC
Format/Info                              : Advanced Video Codec
Format profile                           : [email protected]
Format settings                          : CABAC / 4 Ref Frames
Format settings, CABAC                   : Yes
Format settings, Reference frames        : 4 frames
Codec ID                                 : V_MPEG4/ISO/AVC
Duration                                 : 1 h 37 min
Bit rate                                 : 2 200 kb/s
Width                                    : 1 920 pixels
Height                                   : 804 pixels
Display aspect ratio                     : 2.40:1
Frame rate mode                          : Constant
Frame rate                               : 23.976 (24000/1001) FPS
Color space                              : YUV
Chroma subsampling                       : 4:2:0
Bit depth                                : 8 bits
Scan type                                : Progressive
Bits/(Pixel*Frame)                       : 0.059
Stream size                              : 1.46 GiB (85%)
Writing library                          : x264 core 157 r2935 545de2f

Audio
ID                                       : 2
Format                                   : AC-3
Format/Info                              : Audio Coding 3
Commercial name                          : Dolby Digital
Codec ID                                 : A_AC3
Duration                                 : 1 h 37 min
Bit rate mode                            : Constant
Bit rate                                 : 384 kb/s
Channel(s)                               : 6 channels
Channel layout                           : L R C LFE Ls Rs
Sampling rate                            : 48.0 kHz
Frame rate                               : 31.250 FPS (1536 SPF)
Bit depth                                : 16 bits
Compression mode                         : Lossy
Stream size                              : 269 MiB (15%)
Language                                 : English
Service kind                             : Complete Main
Default                                  : Yes
Forced                                   : No

Text
ID                                       : 3
Format                                   : UTF-8
Codec ID                                 : S_TEXT/UTF8
Codec ID/Info                            : UTF-8 Plain Text
Duration                                 : 1 h 31 min
Bit rate                                 : 62 b/s
Count of elements                        : 1221
Stream size                              : 42.3 KiB (0%)
Language                                 : English
Default                                  : Yes
Forced                                   : No


Click To View Image

https://pichub.site/image/hYHCb
https://pichub.site/image/hY9fy
https://pichub.site/image/hYTr0
https://pichub.site/image/hYFWV
https://pichub.site/image/hYW7T
https://pichub.site/image/hYbNN

YouTube Video:
Category:Movies
Language:English  English
Total Size:1.73 GB
Info Hash:8E1C4C805C620DDA38508D91E28516E583817981
Added By:MovieFreak Verified UploaderMovie Pirate
Date Added:2019-08-14 19:23:33
Torrent Status:Torrent Verified


Ratings:Not Yet Rated (Log in to rate it)


Tracker:
udp://tracker.openbittorrent.com:80/announce

This Torrent also has backup trackers
URLSeedersLeechersCompleted
udp://tracker.openbittorrent.com:80/announce9510
udp://tracker.opentrackr.org:1337/announce3353
udp://tracker.coppersurfer.tk:6969/announce11399
udp://tracker.leechers-paradise.org:6969/announce10387
udp://tracker.internetwarriors.net:1337/announce3235
udp://tracker.opentrackr.org:1337/announce3353
udp://9.rarbg.to:2750/announce1284
udp://exodus.desync.com:6969/announce8249
udp://tracker1.itzmx.com:8080/announce000
udp://explodie.org:6969/announce2024
http://tracker3.itzmx.com:6961/announce3427
udp://tracker.port443.xyz:6969/announce000
udp://tracker.torrent.eu.org:451/announce119


File List: 





Comments
No comments still posted